XFileSharing Pro - Problem with MP4mod

Message
Author
200299
Posts: 28
Joined: Feb 17, 2011 5:04 pm

Problem with MP4mod

#1 Postby 200299 » Mar 22, 2012 11:21 pm

MP4mod does not work.I add an error in the video conversion
Please help me.Thanks

Code: Select all

/var/www/clients/client0/web1/cgi-bin# ./enc.pl
(00005)(qqkvo3bjny5h)
FILE:/var/www/clients/client0/web1/cgi-bin/uploads/00005/qqkvo3bjny5h
(624 x 352)(2611 secs)
ffmpeg version git-2012-03-22-eb98412 Copyright (c) 2000-2012 the FFmpeg developers
  built on Mar 22 2012 14:58:51 with gcc 4.4.5
  configuration: --enable-gpl --enable-postproc --enable-pthreads --enable-libfaac --enable-libmp3lame --enable-libtheora --enable-libx264 --enable-shared --enable-nonfree --enable-libvorbis --enable-libgsm --enable-libspeex --enable-libschroedinger --enable-libdirac --enable-avfilter --enable-libopenjpeg --enable-libopencore-amrnb --enable-libopencore-amrwb --enable-version3
  libavutil      51. 44.100 / 51. 44.100
  libavcodec     54. 12.100 / 54. 12.100
  libavformat    54.  2.100 / 54.  2.100
  libavdevice    53.  4.100 / 53.  4.100
  libavfilter     2. 65.102 /  2. 65.102
  libswscale      2.  1.100 /  2.  1.100
  libswresample   0.  7.100 /  0.  7.100
  libpostproc    52.  0.100 / 52.  0.100
Input #0, avi, from '/var/www/clients/client0/web1/cgi-bin/uploads/00005/qqkvo3bjny5h':
  Duration: 00:43:31.69, start: 0.000000, bitrate: 1326 kb/s
    Stream #0:0: Video: mpeg4 (Advanced Simple Profile) (XVID / 0x44495658), yuv420p, 624x352 [SAR 1:1 DAR 39:22], 23.98 tbr, 23.98 tbn, 23.98 tbc
    Stream #0:1: Audio: mp3 (U[0][0][0] / 0x0055), 48000 Hz, stereo, s16, 160 kb/s
File for preset 'normal' not found
Fsize:

ankurs
Posts: 1054
Joined: Mar 10, 2009 2:34 am

#2 Postby ankurs » Mar 24, 2012 7:28 am

"File for preset 'normal' not found"

check your ffmpeg install, normal preset should be there

200299
Posts: 28
Joined: Feb 17, 2011 5:04 pm

#3 Postby 200299 » Mar 24, 2012 7:15 pm

OK thanks

now its ok,but now can not play mp4 files in nginx (player
says video not found or denided),download mp4 (404 not found)

does anyone have any advice?

Thanks

ankurs
Posts: 1054
Joined: Mar 10, 2009 2:34 am

#4 Postby ankurs » Mar 25, 2012 10:46 am

did you get the nginx install done by sibsoft ? they should be able to fix it for you

200299
Posts: 28
Joined: Feb 17, 2011 5:04 pm

#5 Postby 200299 » Mar 25, 2012 11:08 am

The problem is with support from Sibsoft, this support is very bad (reluctance on their part)


Now I would probably use a different script, but unfortunately I already xfilesharingpro was a lot of money

Sorry for my bad english

ankurs
Posts: 1054
Joined: Mar 10, 2009 2:34 am

#6 Postby ankurs » Mar 25, 2012 11:12 am

sibsoft doesnt help with nginx install, unless you have got it installed from them

support is currently under heavy load and hence there are delays in getting things done

if you are in a hurry, hire a perl developer and also a system administrator

admin
Site Admin
Posts: 1808
Joined: Mar 22, 2006 12:32 pm

#7 Postby admin » Mar 25, 2012 11:28 am

By default, Xfilesharing require apache. However, we provide our nginx mod solution. If you're trying to run it under nginx by yourself - you're doing that on your own risk and you will not get SibSoft support here.

200299, we replied on all of your emails (including problem with "normal" preset not found). Not sure what is your problem with support.

200299
Posts: 28
Joined: Feb 17, 2011 5:04 pm

#8 Postby 200299 » Mar 25, 2012 11:21 pm

The problem is that when you pay for something, it should work. If you pay 80USD for MP4 mode, I expect that I will install and operate.
And not that I would look for people I have it put into operation. And again I have to pay them. I think that in Sibsoft I paid enough money for everything and that aid should work differently. I paid for something and that something should work.

I can not install nginx - I have just installed the mod MP4

Unfortunately, I did not get any man who knows the script and helped me with installing mods pseudostreaming etc. ... If you know of someone please let me know

ankurs
Posts: 1054
Joined: Mar 10, 2009 2:34 am

#9 Postby ankurs » Mar 26, 2012 7:57 am

200299 wrote:now its ok,but now can not play mp4 files in nginx (player
says video not found or denided),download mp4 (404 not found)


200299 wrote:I can not install nginx - I have just installed the mod MP4

Unfortunately, I did not get any man who knows the script and helped me with installing mods pseudostreaming etc. ... If you know of someone please let me know


you did mention nginx , you paid for mp4 encoding & not pseudostreaming or nginx

if you are on apache, google for pseudostreaming apache; there are enough guides

there are plenty of companies who can do it , http://www.webhostingtalk.com/wiki/Comp ... management


Return to “XFileSharing Pro”



Who is online

Users browsing this forum: No registered users and 0 guests